#TITLE:V3;
#SUBTITLE:;
#ARTIST:BeautifulDay;
#TITLETRANSLIT:;
#SUBTITLETRANSLIT:;
#ARTISTTRANSLIT:;
#CREDIT:;
#BANNER:;
#BACKGROUND:;
#LYRICSPATH:;
#CDTITLE:;
#MUSIC:V3.mp3;
#OFFSET:0.000;
#SAMPLESTART:100.000;
#SAMPLELENGTH:12.000;
#SELECTABLE:YES;
#BPMS:0.000=160.000;
#STOPS:;
#BGCHANGES:;
// cache tags:
#FIRSTBEAT:2.000;
#LASTBEAT:452.000;
#SONGFILENAME:Songs/nhac/dttvb.v3/v.sm;
#HASMUSIC:1;
#HASBANNER:0;
#MUSICLENGTH:171.894;
// end cache tags

//---------------dance-single - ----------------
#NOTES:
     dance-single:
     :
     Challenge:
     14:
     1.000,1.000,1.000,1.000,0.684,951.000,262.000,208.000,0.000,105.000:
0000
0000
0101
0000
,
0000
0000
0000
0101
0110
0000
0000
0000
,
0000
0000
0000
1010
0110
0000
0000
0000
,
0000
1000
0100
0010
0001
0100
0010
0001
,
1000
0010
0001
1000
0101
0000
0010
0000
,
0100
0001
0100
1000
,
0100
0010
0001
0100
,
1000
0000
0001
0000
0010
0100
1000
0000
,
0001
0010
0100
0010
1001
0000
0000
0000
,
0010
0000
1000
0000
0110
0001
0000
1000
,
0100
0010
0001
0010
1100
0000
0000
0000
,
0000
0000
0010
0100
1010
0000
0010
0000
,
0001
0000
1000
0100
1010
0000
0000
0000
,
0001
0010
1010
0000
,
0000
0001
0000
0000
1011
0100
0010
0001
,
1000
0100
0010
0001
1000
0100
0010
0001
,
1000
0100
0010
0100
1001
0000
0000
0000
,
0000
0000
0000
0000
,
0000
0000
1000
0000
1000
0100
1000
0000
1100
0000
0010
0100
0010
0000
0001
0000
,
1100
0000
0110
0000
0011
0000
0110
0000
1100
0000
0010
0100
0010
0000
1000
0000
,
0011
0000
0110
0000
1100
0000
0110
0000
0011
0000
0001
0100
0001
0010
1000
0000
,
0110
0000
0000
1100
0000
0000
0110
0000
0011
0000
0000
0110
0000
0000
1100
0000
,
0110
0000
0001
0010
0100
0010
0001
0010
0100
0000
0001
0010
0001
0000
1000
0000
,
1100
0000
0002
0110
0000
0000
1103
0000
0001
0000
1000
0010
1000
0000
0100
0000
,
0011
0000
2000
0110
0000
0000
3011
0000
1000
0000
0100
0010
0001
0000
0110
0000
,
0011
0000
1000
0110
0000
0100
0011
0000
0011
0100
1000
0010
0100
1000
0001
0010
,
1000
0100
0010
0000
1110
0000
0111
0000
2112
0000
0000
0000
0000
0000
3203
0000
,
2320
0000
0000
0000
0000
0000
3032
0000
0223
0000
0000
0000
0000
0000
1330
0001
,
1000
0100
0010
0100
1000
0001
1000
0100
,
0011
0011
0111
0000
,
0000
0000
1100
0110
0012
0000
0000
0000
,
0203
0000
0000
0000
0320
0000
0032
0000
2203
3000
0000
0000
0000
0000
0000
0000
,
0320
0000
2030
3200
0322
0033
0002
0023
,
2230
3300
0220
2332
3113
0000
0111
0000
,
1110
0000
1100
0000
0110
0000
0011
0000
2102
0000
0010
0000
0100
3000
0013
0000
,
2120
0000
0001
0030
0100
0000
3001
0000
0012
0000
1000
0000
0010
0000
1003
0100
,
1000
0110
0011
0110
1100
0010
0100
0010
,
2002
0000
0000
3000
2023
0000
0000
3000
2230
0000
0000
3000
0300
0000
0000
0000
,
0101
0000
1010
0110
0202
0000
0000
0000
,
0313
0000
0000
0000
0101
0000
0110
0000
2020
3000
0000
0000
0000
0000
0000
0000
,
0130
0000
1100
0110
0101
0000
0011
0110
,
1010
0000
0000
0000
0110
0000
1001
0000
0110
1000
0100
0010
0001
0010
0100
1000
,
0100
0001
0010
0100
1001
0010
0001
0010
,
0100
1000
0100
1000
0010
0100
0001
0010
,
0100
1000
0100
0010
0001
1000
0001
0010
,
0100
1000
0100
0010
0001
0010
0100
0010
,
2100
0010
0100
0010
0100
0010
0100
0010
0200
0000
0010
0000
0011
0000
0001
0000
,
3311
0110
1100
0110
1100
1000
1100
0100
,
1100
0110
0011
0110
1100
1001
1010
1100
,
1000
0000
1001
0000
0101
0000
0011
0000
1001
0000
0010
0100
1000
0000
1001
0000
,
0010
0100
1000
0000
1001
0000
0010
0100
1002
0000
0023
0000
0230
0000
2300
0000
,
3200
0000
2300
0000
3200
0000
0320
0000
1032
0100
0013
0100
0010
1000
0100
0010
,
0001
0010
0100
1000
0010
0100
0010
0100
2000
0000
3200
0000
0320
0000
0032
0000
,
0023
0000
0230
0000
2300
0000
3200
0000
1320
0100
0031
0100
0001
1000
0100
0010
,
0001
0010
0100
1000
0001
0100
0001
0100
1010
0000
0101
0000
0110
0000
0101
0000
,
1010
0110
0101
0110
1100
0110
0101
0110
,
1001
1100
1010
1100
1001
0001
0001
0101
,
0001
0001
0011
0001
0001
1001
0001
0001
,
0101
0001
0011
0001
1001
1000
1000
1010
,
1000
1000
1100
1000
1000
1010
1000
1000
,
1001
0000
1000
0000
1010
0000
1000
0000
2001
0010
0100
0010
0001
0010
0100
0010
,
0001
0010
0100
0001
0010
0100
3001
0010
0201
0010
1000
0010
0001
0010
1000
0010
,
0001
0010
1000
0001
0010
1000
0301
1000
0021
0100
1000
0100
0001
0100
1000
0100
,
0001
0100
1000
0100
0001
0100
1030
0100
0012
0100
1000
0100
0010
0100
1000
0100
,
2000
0000
0000
0000
3200
0000
0000
0000
2323
0000
0000
0000
0000
0000
0000
3000
,
2230
0000
0000
0000
0000
0000
0000
0300
3202
0000
0000
0300
0223
0000
0000
0030
,
2320
0000
0000
3000
2230
0000
0000
0000
3322
0000
0000
0000
0000
0000
0000
0000
,
0000
0000
0000
0000
0000
0000
0000
0030
2103
0010
0001
0010
0100
0001
0010
0100
,
0010
0001
0100
0010
0001
0010
0100
0010
3001
0100
0010
1000
0001
0100
0010
1000
,
0001
0100
0010
1000
0001
0100
0010
1000
0010
0100
0010
0100
0001
0010
0001
0010
,
1000
0100
1000
0100
0010
0100
0010
0100
0010
0100
1000
0100
0010
1000
0100
0010
,
0001
0010
0100
1000
0010
0100
1000
0001
0010
0100
1000
0100
0010
1000
0100
0010
,
0001
0010
0100
1000
0010
0100
1000
0010
0001
1000
0100
0001
0100
1000
0100
0010
,
0100
1000
0010
0100
1000
0001
0010
0100
1000
0010
0001
0100
0010
1000
0100
0001
,
1000
0001
0100
1000
0001
0010
0100
0001
0010
1000
0100
0001
0100
1000
0100
0010
,
0001
0010
0100
1000
0010
1000
0001
0100
0010
0100
0010
1000
0001
0100
0010
1000
,
0001
0100
0010
0100
0010
0100
0010
0100
2001
0000
0100
0000
0010
0000
0100
0000
,
0001
0000
0100
0000
0010
0000
0100
0000
0001
0000
3022
0030
0223
0030
2320
3000
,
2032
0003
3022
0030
2203
3000
0322
0003
1032
0000
0010
0000
0100
0000
0010
0000
,
1000
0010
0110
0010
1000
0010
1100
0010
,
1000
0000
0010
0000
1000
0100
0010
0100
1003
0100
0010
1000
0100
1000
0100
0010
,
1000
0100
0010
0100
0001
0100
0010
0100
0001
0100
0010
0100
1000
0100
0010
0100
,
0001
0010
0100
1000
0100
0010
0100
0001
0100
0010
1001
0100
1000
0100
0010
0001
,
0010
0001
1000
0001
0010
0000
0001
0010
1000
0100
0001
1000
0010
1000
0100
0010
,
0001
0010
0001
0100
0010
1000
0100
1000
0012
0100
1000
0100
0010
0100
1000
0100
,
0010
0100
1000
0100
0010
0100
1000
0103
0010
1000
0010
1000
0001
0100
0001
0100
,
0010
0100
0001
0010
1000
0100
0001
0010
2200
0000
0000
0000
0300
0000
0000
0000
,
3000
0000
0000
0000
0000
0000
0000
0000
0000
0000
2200
3300
0220
0330
0022
0033
,
2002
3000
0000
0000
0000
0000
0020
0003
2230
0300
0000
0000
0000
0000
0020
3000
,
0230
0000
0000
0000
0000
0000
0310
0001
0010
0000
1000
0000
0100
0000
0010
0000
,
1111
1000
0100
0010
1111
0000
1111
0000
,
1111
1000
0011
1000
0100
1000
0011
0110
,
2200
0000
0000
0000
3320
0000
2030
3200
,
2320
0000
0000
0000
0000
0000
0000
0000
3230
0000
0000
0000
0322
0033
0220
0330
,
2211
3300
0000
0000
0021
0030
2100
3000
1121
0030
0000
0000
0220
0000
2030
3300
,
1111
0000
0000
0000
1110
0000
0000
0000
0111
0000
2200
3300
0220
0330
0022
0033
,
2112
3000
0000
0000
0000
0000
0023
0000
2230
0300
0000
0000
0000
0000
0022
3000
,
0233
0000
0000
0000
0000
0000
0310
0001
1010
0000
0110
0000
0101
0000
0110
0000
,
2002
3003
2200
3300
2020
3030
0202
0303
2112
3003
0000
0000
1212
0303
0000
0000
,
1122
0030
1000
0000
0100
0000
1000
0000
0110
0000
1000
0000
0100
0000
1000
0000
,
2110
0010
0100
0010
0110
0010
0100
0010
,
3103
0010
0100
0000
1000
0100
1000
0000
0001
0010
0001
0000
1100
0000
0110
0000
,
0011
1000
0100
0010
1100
0110
0011
0110
,
1000
0100
0010
0001
2002
0000
0000
3003
0001
0010
0100
1000
2002
0000
0110
3003
,
0100
0010
0202
0303
0220
0330
2020
3030
0022
0033
0220
0330
2200
3300
0220
0330
,
1100
0000
0011
0000
1221
0000
0300
0030
0011
0000
1100
0000
1221
0000
0030
0300
,
1000
0100
0010
0001
0100
0010
1000
0100
0001
0001
0010
0001
0100
0010
1000
0100
,
0011
0010
0010
0001
0010
0100
0010
0001
1111
0000
0000
0000
1100
0000
0000
0000
,
1111
0011
1111
0110
,
1111
1100
1111
0110
1111
0011
1111
1001
,
0111
1000
2100
0210
0312
3120
2130
0213
0021
3331
2000
3200
0320
0032
2003
3020
,
1030
0010
0100
0010
0100
0010
0100
0010
0100
0010
2000
0000
3200
0000
0320
0000
,
0032
0000
2220
0000
,
3333
0000
0000
0000
;
